Skyscraper (2018) 720p - BluRay - x264 - DD5.1 - ESub [Dual Audio][Hindi+English]

Skyscraper (2018) 720p - BluRay - x264 - DD5.1 - ESub [Dual Audio][Hindi+English]





Format                      : Matroska
Format version              : Version 4 / Version 2
File size                   : 1.48 GiB
Duration                    : 1 h 42 min
Overall bit rate            : 2 069 kb/s
Encoded date                : UTC 2018-10-27 16:51:10
Writing application         : mkvmerge v7.1.0 ('Good Love') 32bit built on Jul 27 2014 12:59:18
Writing library             : libebml v1.3.0 + libmatroska v1.4.1

Video
ID                          : 1
Format                      : AVC
Format/Info                 : Advanced Video Codec
Format profile              : High@L4.1
Format settings, CABAC      : Yes
Format settings, RefFrames  : 9 frames
Codec ID                    : V_MPEG4/ISO/AVC
Duration                    : 1 h 42 min
Bit rate                    : 1 199 kb/s
Width                       : 1 280 pixels
Height                      : 536 pixels
Display aspect ratio        : 2.40:1
Frame rate mode             : Constant
Frame rate                  : 23.976 (24000/1001) FPS
Color space                 : YUV
Chroma subsampling          : 4:2:0
Bit depth                   : 8 bits
Scan type                   : Progressive
Bits/(Pixel*Frame)          : 0.073
Stream size                 : 878 MiB (58%)
Writing library             : x264 core 155 r2901 7d0ff22
Encoding settings           : cabac=1 / ref=9 / deblock=1:-1:-1 / analyse=0x3:0x133 / me=umh / subme=10 / psy=1 / psy_rd=1.00:0.00 / mixed_ref=1 / me_range=24 / chroma_me=1 / trellis=2 / 8x8dct=1 / cqm=0 / deadzone=21,11 / fast_pskip=1 / chroma_qp_offset=-2 / threads=17 / lookahead_threads=1 / sliced_threads=0 / nr=0 / decimate=1 / interlaced=0 / bluray_compat=0 / constrained_intra=0 / bframes=6 / b_pyramid=2 / b_adapt=2 / b_bias=0 / direct=3 / weightb=1 / open_gop=0 / weightp=2 / keyint=240 / keyint_min=23 / scenecut=40 / intra_refresh=0 / rc_lookahead=60 / rc=2pass / mbtree=1 / bitrate=1199 / ratetol=1.0 / qcomp=0.60 / qpmin=0 / qpmax=69 / qpstep=4 / cplxblur=20.0 / qblur=0.5 / vbv_maxrate=62500 / vbv_bufsize=78125 / nal_hrd=none / filler=0 / ip_ratio=1.40 / aq=1:1.00
Language                    : English
Default                     : Yes
Forced                      : No

Audio #1
ID                          : 2
Format                      : E-AC-3
Format/Info                 : Enhanced Audio Coding 3
Format settings, Endianness : Big
Codec ID                    : A_EAC3
Duration                    : 1 h 42 min
Bit rate mode               : Constant
Bit rate                    : 500 b/s
Channel(s)                  : 6 channels
Channel positions           : Front: L C R, Side: L R, LFE
Sampling rate               : 48.0 kHz
Frame rate                  : 187.500 FPS (256 SPF)
Compression mode            : Lossy
Stream size                 : 563 MiB (37%)
Language                    : Hindi
Service kind                : Complete Main
Default                     : Yes
Forced                      : No

Audio #2
ID                          : 3
Format                      : AAC
Format/Info                 : Advanced Audio Codec
Format profile              : HE-AAC / LC
Codec ID                    : A_AAC
Duration                    : 1 h 42 min
Bit rate                    : 100.0 kb/s
Channel(s)                  : 2 channels
Channel positions           : Front: L R
Sampling rate               : 48.0 kHz / 24.0 kHz
Frame rate                  : 23.438 FPS (1024 SPF)
Compression mode            : Lossy
Delay relative to video     : 31 ms
Stream size                 : 73.2 MiB (5%)
Language                    : English
Default                     : No
Forced                      : No

Text
ID                          : 4
Format                      : UTF-8
Codec ID                    : S_TEXT/UTF8
Codec ID/Info               : UTF-8 Plain Text
Duration                    : 1 h 37 min
Bit rate                    : 44 b/s
Count of elements           : 1102
Stream size                 : 31.7 KiB (0%)
Language                    : English
Default                     : Yes
Forced                      : No





SINGLE DIRECT FAST LINKS

http://www.heroupload.us/76c3f53cad73df1c/Skyscraper.2018.BluRay.720p.Original.DTS-7.1.Hindi+English.mkv



http://filefloater.com/V4y/Skyscraper.2018.BluRay.720p.Original.DTS-7.1.Hindi+English.mkv




Buy Premium From My Links & Support Me
шаблоны для dle 11.2