Game of Thrones S02E05 720p BluRay x264 [Dual-Audio][Hindi English] KMHD

Game of Thrones S02E05 720p BluRay x264 [Dual-Audio][Hindi English] KMHD





Format                      : Matroska
Format version              : Version 4 / Version 2
File size                   : 448 MiB
Duration                    : 54 min 10 s
Overall bit rate            : 1 156 kb/s
Encoded date                : UTC 2018-09-30 09:30:04
Writing application         : mkvmerge v26.0.0 ('In The Game') 64-bit
Writing library             : libebml v1.3.6 + libmatroska v1.4.9

Video
ID                          : 1
Format                      : AVC
Format/Info                 : Advanced Video Codec
Format profile              : [email protected]
Format settings, CABAC      : Yes
Format settings, RefFrames  : 8 frames
Codec ID                    : V_MPEG4/ISO/AVC
Duration                    : 54 min 10 s
Bit rate                    : 1 013 kb/s
Width                       : 1 280 pixels
Height                      : 720 pixels
Display aspect ratio        : 16:9
Frame rate mode             : Constant
Frame rate                  : 23.976 (24000/1001) FPS
Color space                 : YUV
Chroma subsampling          : 4:2:0
Bit depth                   : 8 bits
Scan type                   : Progressive
Bits/(Pixel*Frame)          : 0.046
Stream size                 : 392 MiB (88%)
Writing library             : x264 core 146 r2538 121396c
Encoding settings           : cabac=1 / ref=8 / deblock=1:-3:-3 / analyse=0x3:0x133 / me=umh / subme=10 / psy=1 / psy_rd=1.00:0.15 / mixed_ref=1 / me_range=16 / chroma_me=1 / trellis=2 / 8x8dct=1 / cqm=0 / deadzone=21,11 / fast_pskip=1 / chroma_qp_offset=-3 / threads=12 / lookahead_threads=1 / sliced_threads=0 / nr=0 / decimate=1 / interlaced=0 / bluray_compat=0 / constrained_intra=0 / bframes=3 / b_pyramid=2 / b_adapt=2 / b_bias=0 / direct=3 / weightb=1 / open_gop=0 / weightp=2 / keyint=250 / keyint_min=23 / scenecut=40 / intra_refresh=0 / rc_lookahead=60 / rc=crf / mbtree=1 / crf=24.0 / qcomp=0.60 / qpmin=0 / qpmax=69 / qpstep=4 / ip_ratio=1.40 / aq=1:1.00
Language                    : English
Default                     : Yes
Forced                      : No

Audio
ID                          : 2
Format                      : AAC
Format/Info                 : Advanced Audio Codec
Format profile              : LC
Codec ID                    : A_AAC
Duration                    : 54 min 10 s
Bit rate                    : 141 kb/s
Channel(s)                  : 2 channels
Channel positions           : Front: L R
Sampling rate               : 48.0 kHz
Frame rate                  : 46.875 FPS (1024 SPF)
Compression mode            : Lossy
Delay relative to video     : 9 ms
Stream size                 : 54.6 MiB (12%)
Language                    : English
Default                     : Yes
Forced                      : No

Text #1
ID                          : 3
Format                      : UTF-8
Codec ID                    : S_TEXT/UTF8
Codec ID/Info               : UTF-8 Plain Text
Duration                    : 50 min 33 s
Bit rate                    : 204 b/s
Count of elements           : 757
Stream size                 : 75.8 KiB (0%)
Language                    : Hindi
Default                     : Yes
Forced                      : Yes

Text #2
ID                          : 4
Format                      : ASS
Codec ID                    : S_TEXT/ASS
Codec ID/Info               : Advanced Sub Station Alpha
Duration                    : 52 min 54 s
Bit rate                    : 251 b/s
Count of elements           : 891
Compression mode            : Lossless
Stream size                 : 97.4 KiB (0%)
Title                       : Hindi (Translated)
Language                    : Hindi
Default                     : No
Forced                      : No

Text #3
ID                          : 5
Format                      : UTF-8
Codec ID                    : S_TEXT/UTF8
Codec ID/Info               : UTF-8 Plain Text
Duration                    : 52 min 44 s
Bit rate                    : 73 b/s
Count of elements           : 845
Stream size                 : 28.5 KiB (0%)
Language                    : English
Default                     : No
Forced                      : No

Menu
00:00:00.000                : en:00:00:00.000
00:01:54.114                : en:00:01:54.114
00:11:23.766                : en:00:11:23.766
00:19:27.833                : en:00:19:27.833
00:28:16.028                : en:00:28:16.028
00:36:49.332                : en:00:36:49.332
00:46:11.686                : en:00:46:11.686
00:52:50.501                : en:00:52:50.501











SINGLE DIRECT FAST LINKS

http://www.heroupload.us/7e600ba55b0fd261/Game.of.Thrones.S02E05.Hindi.Bluray.720p.x264-KMHD.mkv



http://filefloater.com/1KT7/Game.of.Thrones.S02E05.Hindi.Bluray.720p.x264-KMHD.mkv



Buy Premium From My Links & Support Me
шаблоны для dle 11.2