Game of Thrones S02E08 1080p 10bit BluRay x265 HEVC [Dual-Audio][Hindi English] KMHD

Game of Thrones S02E08 1080p 10bit BluRay x265 HEVC [Dual-Audio][Hindi English] KMHD





Format                      : Matroska
Format version              : Version 4 / Version 2
File size                   : 817 MiB
Duration                    : 53 min 21 s
Overall bit rate            : 2 141 kb/s
Encoded date                : UTC 2018-10-14 14:26:40
Writing application         : mkvmerge v26.0.0 ('In The Game') 64-bit
Writing library             : libebml v1.3.6 + libmatroska v1.4.9

Video
ID                          : 1
Format                      : HEVC
Format/Info                 : High Efficiency Video Coding
Format profile              : Main 10@L4@Main
Codec ID                    : V_MPEGH/ISO/HEVC
Duration                    : 53 min 21 s
Bit rate                    : 1 741 kb/s
Width                       : 1 920 pixels
Height                      : 1 080 pixels
Display aspect ratio        : 16:9
Frame rate mode             : Constant
Frame rate                  : 23.976 (24000/1001) FPS
Color space                 : YUV
Chroma subsampling          : 4:2:0
Bit depth                   : 10 bits
Bits/(Pixel*Frame)          : 0.035
Stream size                 : 664 MiB (81%)
Default                     : Yes
Forced                      : No

Audio #1
ID                          : 2
Format                      : AC-3
Format/Info                 : Audio Coding 3
Format settings, Endianness : Big
Codec ID                    : A_AC3
Duration                    : 53 min 11 s
Bit rate mode               : Constant
Bit rate                    : 192 kb/s
Channel(s)                  : 2 channels
Channel positions           : Front: L R
Sampling rate               : 48.0 kHz
Frame rate                  : 31.250 FPS (1536 SPF)
Bit depth                   : 16 bits
Compression mode            : Lossy
Stream size                 : 73.0 MiB (9%)
Language                    : Hindi
Service kind                : Complete Main
Default                     : Yes
Forced                      : Yes

Audio #2
ID                          : 3
Format                      : AAC
Format/Info                 : Advanced Audio Codec
Format profile              : HE-AAC / LC
Codec ID                    : A_AAC
Duration                    : 53 min 21 s
Bit rate                    : 206 kb/s
Channel(s)                  : 6 channels
Channel(s)_Original         : 18 channels
Channel positions           : Front: 14, Side: C, Back: C, LFE= 2
Sampling rate               : 48.0 kHz / 24.0 kHz
Frame rate                  : 23.438 FPS (1024 SPF)
Compression mode            : Lossy
Delay relative to video     : 23 ms
Stream size                 : 78.7 MiB (10%)
Language                    : English
Default                     : No
Forced                      : No

Text
ID                          : 4
Format                      : UTF-8
Codec ID                    : S_TEXT/UTF8
Codec ID/Info               : UTF-8 Plain Text
Duration                    : 51 min 55 s
Bit rate                    : 76 b/s
Count of elements           : 872
Stream size                 : 28.9 KiB (0%)
Language                    : English
Default                     : Yes
Forced                      : No






SINGLE DIRECT FAST LINKS
http://www.heroupload.us/2d4f7a8a122eaf08/Game.of.Thrones.S02E08.The.Prince.of.Winterfell.1080p.10bit.BluRay.Hindi-Eng.x265.HEVC-KMHD.mkv



http://filefloater.com/2B2H/Game.of.Thrones.S02E08.The.Prince.of.Winterfell.1080p.10bit.BluRay.Hindi-Eng.x265.HEVC-KMHD.mkv




Buy Premium From My Links & Support Me
шаблоны для dle 11.2