Carry on Jatta 2 (2018) Punjabi - 720p - DTHRip - AVC - AAC - ESubs-HDhub

Carry on Jatta 2 (2018) Punjabi - 720p - DTHRip - AVC - AAC - ESubs-HDhub







General

Format                      : Matroska
Format version              : Version 4 / Version 2
File size                   : 1.12 GiB
Duration                    : 2 h 28 min
Overall bit rate            : 1 080 kb/s
Movie name                  : Carry On Jatta 2 (HDhub)
Encoded date                : UTC 2018-07-16 11:00:49
Writing application         : mkvmerge v10.0.0 ('To Drown In You') 64bit
Writing library             : libebml v1.3.4 + libmatroska v1.4.5


Video

ID                          : 1
Format                      : AVC
Format/Info                 : Advanced Video Codec
Format profile              : Main@L3.1
Format settings             : CABAC / 4 Ref Frames
Format settings, CABAC      : Yes
Format settings, ReFrames   : 4 frames
Codec ID                    : V_MPEG4/ISO/AVC
Duration                    : 2 h 28 min
Bit rate                    : 950 kb/s
Width                       : 1 262 pixels
Height                      : 720 pixels
Display aspect ratio        : 16:9
Frame rate mode             : Constant
Frame rate                  : 23.976 (24000/1001) FPS
Color space                 : YUV
Chroma subsampling          : 4:2:0
Bit depth                   : 8 bits
Scan type                   : Progressive
Bits/(Pixel*Frame)          : 0.044
Stream size                 : 1 011 MiB (88%)
Title                       : HDhub
Writing library             : x264 core 148 r2708 86b7198
Default                     : Yes
Forced                      : No
Color range                 : Limited
Color primaries             : BT.709
Transfer characteristics    : BT.709
Matrix coefficients         : BT.709


Audio

ID                          : 2
Format                      : AAC
Format/Info                 : Advanced Audio Codec
Format profile              : LC
Codec ID                    : A_AAC-2
Duration                    : 2 h 28 min
Bit rate                    : 128 kb/s
Channel(s)                  : 2 channels
Channel positions           : Front: L R
Sampling rate               : 44.1 kHz
Frame rate                  : 43.066 FPS (1024 SPF)
Compression mode            : Lossy
Delay relative to video     : -6 ms
Stream size                 : 136 MiB (12%)
Title                       : HDhub
Language                    : Panjabi
Default                     : Yes
Forced                      : No









SINGLE DIRECT FAST LINKS

http://www.heroupload.us/0a26573b06cfaf53/Carry.on.Jatta.2.2018.Punjabi.720p.DTHRip.x264.AVC.ESubs-HDhub.mp4



http://filefloater.com/2zTv/Carry.on.Jatta.2.2018.Punjabi.720p.DTHRip.x264.AVC.ESubs-HDhub.mp4


Buy Premium From My Links & Support Me
шаблоны для dle 11.2