Dashing Diljala (Premam) (2018) Hindi - 1080p - WEB-HD - AVC - AAC-Adatiya Exclusive

Dashing Diljala (Premam) (2018) Hindi - 1080p - WEB-HD - AVC - AAC-Adatiya Exclusive






Format                      : MPEG-4
Format profile              : Base Media
Codec ID                    : isom (isom/iso2/avc1/mp41)
File size                   : 2.13 GiB
Duration                    : 2 h 0 min
Overall bit rate            : 2 523 kb/s
Writing application         : Lavf58.9.100

Video
ID                          : 1
Format                      : AVC
Format/Info                 : Advanced Video Codec
Format profile              : [email protected]
Format settings, CABAC      : Yes
Format settings, RefFrames  : 2 frames
Codec ID                    : avc1
Codec ID/Info               : Advanced Video Coding
Duration                    : 2 h 0 min
Bit rate                    : 2 389 kb/s
Width                       : 1 920 pixels
Height                      : 1 080 pixels
Display aspect ratio        : 16:9
Frame rate mode             : Constant
Frame rate                  : 25.000 FPS
Color space                 : YUV
Chroma subsampling          : 4:2:0
Bit depth                   : 8 bits
Scan type                   : Progressive
Bits/(Pixel*Frame)          : 0.046
Stream size                 : 2.01 GiB (95%)
Color range                 : Limited
Color primaries             : BT.709
Transfer characteristics    : BT.709
Matrix coefficients         : BT.709

Audio
ID                          : 2
Format                      : AAC
Format/Info                 : Advanced Audio Codec
Format profile              : LC
Codec ID                    : 40
Duration                    : 2 h 0 min
Bit rate mode               : Constant
Bit rate                    : 128 kb/s
Channel(s)                  : 2 channels
Channel positions           : Front: L R
Sampling rate               : 44.1 kHz
Frame rate                  : 43.066 FPS (1024 SPF)
Compression mode            : Lossy
Stream size                 : 110 MiB (5%)
Default                     : Yes
Alternate group             : 1



SINGLE DIRECT FAST LINKS
http://www.heroupload.us/b7649970c1b961b8/Dashing.Diljala.2018.Hindi.1080p.WEB-HD.AVC.AAC-Adatiya.mp4


http://filefloater.com/1KT2/Dashing.Diljala.2018.Hindi.1080p.WEB-HD.AVC.AAC-Adatiya.mp4

700MB LINKS

http://www.heroupload.us/15b315398d499929/Dashing.Diljala.2018.Hindi.1080p.WEB-HD.AVC.AAC-Adatiya.part1.rar
http://www.heroupload.us/12cb230b27fe6323/Dashing.Diljala.2018.Hindi.1080p.WEB-HD.AVC.AAC-Adatiya.part2.rar
http://www.heroupload.us/1b07e64d4cb784bf/Dashing.Diljala.2018.Hindi.1080p.WEB-HD.AVC.AAC-Adatiya.part3.rar
http://www.heroupload.us/e614bf614abe8eef/Dashing.Diljala.2018.Hindi.1080p.WEB-HD.AVC.AAC-Adatiya.part4.rar



http://filefloater.com/1KT3/Dashing.Diljala.2018.Hindi.1080p.WEB-HD.AVC.AAC-Adatiya.part1.rar
http://filefloater.com/1KT4/Dashing.Diljala.2018.Hindi.1080p.WEB-HD.AVC.AAC-Adatiya.part2.rar
http://filefloater.com/1KT5/Dashing.Diljala.2018.Hindi.1080p.WEB-HD.AVC.AAC-Adatiya.part3.rar
http://filefloater.com/1KT6/Dashing.Diljala.2018.Hindi.1080p.WEB-HD.AVC.AAC-Adatiya.part4.rar


Buy Premium From My Links & Support Me
шаблоны для dle 11.2