Fidaa (2018) Hindi - 720p - WEB-HD - AVC - AAC-GM Exclusive

Fidaa (2018) Hindi - 720p - WEB-HD - AVC - AAC-GM Exclusive





Format                      : MPEG-4
Format profile              : Base Media / Version 2
Codec ID                    : mp42 (isom/mp42)
File size                   : 1.44 GiB
Duration                    : 2 h 2 min
Overall bit rate mode       : Variable
Overall bit rate            : 1 685 kb/s
Encoded date                : UTC 2018-10-01 11:51:04
Tagged date                 : UTC 2018-10-01 11:51:04
gsst                        : 0
gstd                        : 7348070

Video
ID                          : 1
Format                      : AVC
Format/Info                 : Advanced Video Codec
Format profile              : [email protected]
Format settings, CABAC      : Yes
Format settings, RefFrames  : 3 frames
Codec ID                    : avc1
Codec ID/Info               : Advanced Video Coding
Duration                    : 2 h 2 min
Bit rate                    : 1 556 kb/s
Width                       : 1 280 pixels
Height                      : 720 pixels
Display aspect ratio        : 16:9
Frame rate mode             : Constant
Frame rate                  : 25.000 FPS
Color space                 : YUV
Chroma subsampling          : 4:2:0
Bit depth                   : 8 bits
Scan type                   : Progressive
Bits/(Pixel*Frame)          : 0.068
Stream size                 : 1.33 GiB (92%)
Title                       : ISO Media file produced by Google Inc. Created on: 10/01/2018.
Encoded date                : UTC 2018-10-01 11:51:04
Tagged date                 : UTC 2018-10-01 11:51:04
Color range                 : Limited
Color primaries             : BT.709
Transfer characteristics    : BT.709
Matrix coefficients         : BT.709

Audio
ID                          : 2
Format                      : AAC
Format/Info                 : Advanced Audio Codec
Format profile              : LC
Codec ID                    : 40
Duration                    : 2 h 2 min
Bit rate mode               : Variable
Bit rate                    : 126 kb/s
Channel(s)                  : 2 channels
Channel positions           : Front: L R
Sampling rate               : 44.1 kHz
Frame rate                  : 43.066 FPS (1024 SPF)
Compression mode            : Lossy
Stream size                 : 110 MiB (7%)
Title                       : ISO Media file produced by Google Inc. Created on: 10/01/2018.
Language                    : English
Encoded date                : UTC 2018-10-01 11:51:04
Tagged date                 : UTC 2018-10-01 11:51:04




SINGLE DIRECT FAST LINKS

http://www.heroupload.us/fea2fc167aff62ca/Fidaa.2018.Hindi.720p.WEB-HD.AVC.AAC-GM.mp4



http://filefloater.com/2AWe/Fidaa.2018.Hindi.720p.WEB-HD.AVC.AAC-GM.mp4




Buy Premium From My Links & Support Me
шаблоны для dle 11.2